[Login] or [Signup]
Login
Username:
Password:
[Signup]
[Recover Account]


Poll


You must be logged in to view polls



Torrent Details For "First.Man.2018.IMAX.1080p.BrRip.x265.[Torrenta2z]"

First.Man.2018.IMAX.1080p.BrRip.x265.[Torrenta2z]

Download this torrent | Magnet Download
Health:
Seeds: 0
Leechers: 0
Completed:
Last Checked: 28-01-2019 07:40:25
External Torrent
Update Stats
Download Magnet


Poster


Watch-Free-HD     Download

Details
Name:First.Man.2018.IMAX.1080p.BrRip.x265.[Torrenta2z]
Description:
 


Media information
********************************

General
Unique ID : 169770975221024081992760352276679543969 (0x7FB8B35316FB9545D25923CB2FC4CCA1)
Complete name : First.Man.2018.IMAX.1080p.BrRip.x265..com.mkv
Format : Matroska
Format version : Version 4
File size : 1.04 GiB
Duration : 2 h 21 min
Overall bit rate : 1 053 kb/s
Movie name : First.Man.2018.IMAX.1080p.BrRip.x265.HEVCBay.com.mkv
Encoded date : UTC 2019-01-28 00:16:41
Writing application : hevcbay
Writing library : hevcbay.com / Lavf58.22.100
Comment : Encoded by hevcbay.com
ENCODED-BY : hevcbay.com

Video
ID : 1
Format : HEVC
Format/Info : High Efficiency Video Coding
Format profile : [email protected]@Main
Codec ID : V_MPEGH/ISO/HEVC
Duration : 2 h 20 min
Bit rate : 1 001 kb/s
Width : 1 920 pixels
Height : 1 080 pixels
Display aspect ratio : 16:9
Frame rate mode : Constant
Frame rate : 23.976 (24000/1001) FPS
Color space : YUV
Chroma subsampling : 4:2:0
Bit depth : 8 bits
Bits/(Pixel*Frame) : 0.020
Stream size : 1 009 MiB (95%)
Writing library : Lavc58.42.102 libx265
Language : English
Default : Yes
Forced : No
Color range : Limited

Audio
ID : 2
Format : AAC LC SBR PS
Format/Info : Advanced Audio Codec Low Complexity with Spectral Band Replication and Parametric Stereo
Commercial name : HE-AACv2
Format settings : NBC
Codec ID : A_AAC-29
Duration : 2 h 21 min
Bit rate : 48.0 kb/s
Channel(s) : 2 channels
Channel layout : C
Sampling rate : 48.0 kHz
Frame rate : 23.438 FPS (2048 SPF)
Compression mode : Lossy
Delay relative to video : -148 ms
Stream size : 50.1 MiB (5%)
Writing library : Lavc58.42.102 libfdk_aac
Language : English
Default : No
Forced : No

Text #1
ID : 3
Format : UTF-8
Codec ID : S_TEXT/UTF8
Codec ID/Info : UTF-8 Plain Text
Duration : 2 h 10 min
Bit rate : 48 b/s
Count of elements : 1376
Stream size : 46.9 KiB (0%)
Title : English-SRT
Language : English
Default : Yes
Forced : No

Text #2
ID : 4
Format : UTF-8
Codec ID : S_TEXT/UTF8
Codec ID/Info : UTF-8 Plain Text
Duration : 2 h 12 min
Bit rate : 55 b/s
Count of elements : 1596
Stream size : 53.9 KiB (0%)
Title : English-SDH-SRT
Language : English
Default : No
Forced : No


SCERNSHOTS
***********************************

 

 

 

 

Category:Movies > WEB-HD
Lang:English  English
Total Size:1.04 GB
Info Hash:33ee80ee4f1d8b4060e78272a53398cbb0d7e900
Added By:RAFI
Date Added:28-01-2019 07:40:25
Views:218
Hits:21

Download Torrent

Ratings:Not Yet Rated (Log in to rate it)

  


Tracker:
udp://tracker.coppersurfer.tk:6969/announce

This Torrent also has backup trackers
URLSeedersLeechersCompleted
http://tracker.internetwarriors.net:1337/announce000
http://tracker3.itzmx.com:6961/announce000
http://tracker1.itzmx.com:8080/announce000
http://explodie.org:6969/announce000
http://tracker2.itzmx.com:6961/announce000
http://tracker4.itzmx.com:2710/announce000
http://tracker.port443.xyz:6969/announce000
http://open.acgnxtracker.com:80/announce000
http://private.minimafia.nl:443/announce000
http://prestige.minimafia.nl:443/announce000
http://tracker.fastdownload.xyz:443/announce000
http://opentracker.xyz:443/announce000
http://opentracker.xyz:80/announce000
http://open.trackerlist.xyz:80/announce000
http://torrent.nwps.ws:80/announce000
http://bt.artvid.ru:6969/announce000
http://tracker.open-tracker.org:1337/announce000
http://tracker.novg.net:6969/announce000
http://tracker.city9x.com:2710/announce000
http://t.nyaatracker.com:80/announce000
http://open.acgtracker.com:1096/announce000
http://newtoncity.org:6969/announce000
wss://tracker.openwebtorrent.com:443/announce000
wss://tracker.fastcast.nz:443/announce000
http://tracker.gbitt.info:443/announce000
http://1337.abcvg.info:443/announce000
http://tracker.torrentyorg.pl:80/announce000
http://tracker.tfile.me:80/announce.php000
http://retracker.mgts.by:80/announce000
http://peersteers.org:80/announce000
http://fxtt.ru:80/announce000


File List: 


Comments

<< Previous      Next >>
1 - 3

[Report] Posted: 30-01-2019 at 17:43:43
RAFI



Uploaded: 0.00 B
Downloaded: 0.00 B
Ratio: ---

 

[Report] Posted: 30-01-2019 at 17:46:25
RAFI



Uploaded: 0.00 B
Downloaded: 0.00 B
Ratio: ---

 

 

 

 


[Report] Posted: 30-01-2019 at 17:47:05
RAFI



Uploaded: 0.00 B
Downloaded: 0.00 B
Ratio: ---

<a href=" http://postimages.org/" target="_blank"><img src=" http://i.postimg.cc/d3M1gRC2/176c00.jpg" alt="176c00"/></a><br/><br/>
<a href=" http://postimages.org/" target="_blank"><img src=" http://i.postimg.cc/90RWXDdW/0.jpg" alt="0"/></a><br/><br/>
<a href=" http://postimages.org/" target="_blank"><img src=" http://i.postimg.cc/76QHy3Ts/2-11.png" alt="2-11"/></a><br/><br/>
<a href=" http://postimages.org/" target="_blank"><img src=" http://i.postimg.cc/nrynXn2q/Singardaan-2019.jpg" alt="Singardaan-2019"/></a><br/><br/>
<br /><a href='http://banks-nearme.com/ibc-near-me'>ibc near me</a><br />

1 - 3
<< Previous      Next >>


Powered by 10 Hamsters v2-svn -|- Page Generated In 2.438002 secs.
-|- RSS FEED
Theme By: Nikkbu