[Login] or [Signup]
Login
Username:
Password:
[Signup]
[Recover Account]


Poll


You must be logged in to view polls



Torrent Details For "Zero (2018) Hindi 720p WEB-DL x264 AAC 1.3GB -1337xHD"

Zero (2018) Hindi 720p WEB-DL x264 AAC 1.3GB -1337xHD

Download this torrent | Magnet Download
Health:
Seeds: 0
Leechers: 0
Completed:
Last Checked: 01-02-2019 17:46:11
External Torrent
Update Stats
Download Magnet


Poster


Watch-Free-HD     Download

Details
Name:Zero (2018) Hindi 720p WEB-DL x264 AAC 1.3GB -1337xHD
Description:
 


General
Format : Matroska
Format version : Version 4
File size : 1.26 GiB
Duration : 2 h 32 min
Overall bit rate : 1 187 kb/s
Movie name : www.HDFilmBoss.cc
Encoded date : UTC 2019-02-01 12:24:11
Writing application : mkvmerge v30.1.0 ('Forever And More') 64-bit
Writing library : libebml v1.3.6 + libmatroska v1.4.9 / Lavf58.20.100
ARTIST : Aanand L. Rai
COMPILATION : 0
DATE : 2018-12-21T08:00:00Z
GENRE : Romance
HD_VIDEO : 1
ITUNEXTC : in-movies|UA|200|
MEDIA_TYPE : 9
PURCHASE_DATE : 2019-02-01 10:05:08
SORT_ARTIST : Aanand L. Rai
SORT_NAME : Zero

Video
ID : 1
Format : AVC
Format/Info : Advanced Video Codec
Format profile : [email protected]
Format settings : CABAC / 4 Ref Frames
Format settings, CABAC : Yes
Format settings, RefFrames : 4 frames
Codec ID : V_MPEG4/ISO/AVC
Duration : 2 h 32 min
Bit rate : 1 129 kb/s
Width : 1 280 pixels
Height : 536 pixels
Display aspect ratio : 2.40:1
Frame rate mode : Variable
Frame rate : 24.000 FPS
Color space : YUV
Chroma subsampling : 4:2:0
Bit depth : 8 bits
Scan type : Progressive
Bits/(Pixel*Frame) : 0.069
Stream size : 1.20 GiB (95%)
Title : www.HDFilmBoss.cc
Writing library : x264 core 148 r2643 5c65704
Language : English
Default : Yes
Forced : No

Audio
ID : 2
Format : AAC LC
Format/Info : Advanced Audio Codec Low Complexity
Codec ID : A_AAC-2
Duration : 2 h 32 min
Bit rate : 56.0 kb/s
Channel(s) : 1 channel
Channel layout : C
Sampling rate : 44.1 kHz
Frame rate : 43.066 FPS (1024 SPF)
Compression mode : Lossy
Delay relative to video : -86 ms
Stream size : 61.0 MiB (5%)
Title : www.HDFilmBoss.cc
Writing library : Lavc58.35.100 libfdk_aac
Language : Hindi
Default : No
Forced : No

Text
ID : 3
Format : ASS
Codec ID : S_TEXT/ASS
Codec ID/Info : Advanced Sub Station Alpha
Duration : 2 h 28 min
Bit rate : 91 b/s
Count of elements : 1825
Compression mode : Lossless
Stream size : 99.6 KiB (0%)
Title : www.HDFilmBoss.cc
Writing library : Lavc58.35.100 ssa
Language : English
Default : Yes
Forced : No

SCERNSHOTS
========================================


 

 

 

 

 

:love  :love  :love  :love  :love  :love  :love  :love  :love  :love  :love  :love  :love  :love  :love  :love  :love  :love  :love  :love  :love  :love  :love  :love  :love  :love  :love  :love  :love  :love  :love  :love  :love  :love  :love  :love  :love  :love  :love  :love  :love  :love  :love  :love  :love  :love  :love  :love  :love  :love  :love  :love  :love  :love  :love  :love  :love  :love  :love  :love  :love  :love  :love  :love  :love  :love  :love  :love  :love  :love  :love  :love  :love  :love  :love  :love  :love  :love  :love  :love  :love  :love  :love  :love  :love  :love  :love  :love  :love  :love  :love  :love  :love  :love  :love  :love  :love  :love  :love  :love  :love  :love  :love  :love  :love  :love  :love  :love  :love  :love  :love  :love  :love  :love  :love  :love  :love  :love  :love
Category:Movies > WEB-HD
Lang:Hindi
Total Size:1.26 GB
Info Hash:4eef420a58637facc0085a354e5fd6aaeaebd55a
Added By:RAFI
Date Added:01-02-2019 12:44:37
Views:779
Hits:151

Download Torrent

Ratings:Not Yet Rated (Log in to rate it)

  


Tracker:
UDP://TRACKER.ZER0DAY.TO:1337/ANNOUNCE


File List: 


Comments

No comments still posted

Powered by 10 Hamsters v2-svn -|- Page Generated In 0.794115 secs.
-|- RSS FEED
Theme By: Nikkbu