[Login] or [Signup]
Login
Username:
Password:
[Signup]
[Recover Account]


Poll


You must be logged in to view polls



Torrent Details For "Maari 2 (2018)[Tamil HQ iTunes-HD - x264 - 5.1 AC3"

Maari 2 (2018)[Tamil HQ iTunes-HD - x264 - 5.1 AC3

Download this torrent | Magnet Download
Health:
Seeds: 54
Leechers: 0
Completed: 18 
Last Checked: 10-02-2019 14:40:02
External Torrent
Update Stats
Download Magnet


Poster


iMDB
Title: Maari 2
Year: 2018
Runtime: 143 minutes
Votes: 781
Rating: 5.8/10
Language: Tamil, Telugu
Director: Balaji Mohan

Produced By: Dhanush,
Music: Yuvan Shankar Raja
Cast:
Dhanush as Maari
Kreshna as Kalai
Tovino Thomas as Beeja
Sai Pallavi as Aanandhi
Varalaxmi Sarathkumar as Vijaya Chamundeeswari
Vidya Pradeep as Kalai's Wife
Robo Shankar as Sani Kizhamai
Kalloori Vinoth as Adithangi
Kaali Venkat as Arumugham
Master Raghavan as Kaali
Trailers:
Maari 2 - Official Trailer


Watch-Free-HD     Download

Details
Name:Maari 2 (2018)[Tamil HQ iTunes-HD - x264 - 5.1 AC3
Description:
Maari 2 (2018)[Tamil HQ iTunes-HD - x264 - 5.1 AC3




http://www.imdb.com/title/tt7510798




[code]
General
Complete name                  : Maari 2 (2018)[Tamil HQ iTunes-HD - x264 - 5.1 AC3.mp4
Format                         : MPEG-4
Format profile                 : Base Media / Version 2
Codec ID                       : mp42 (mp42)
File size                      : 1.20 GiB
Duration                       : 2 h 22 min
Overall bit rate               : 1 205 kb/s
Codirector                     : codirector
Production studio              : studio

Video
Format                         : AVC
Format/Info                    : Advanced Video Codec
Format profile                 : [email protected]
Format settings, CABAC         : Yes
Format settings, RefFrames     : 1 frame
Format settings, GOP           : M=1, N=25
Codec ID                       : avc1
Codec ID/Info                  : Advanced Video Coding
Duration                       : 2 h 22 min
Bit rate                       : 999 kb/s
Width                          : 1 280 pixels
Height                         : 526 pixels
Display aspect ratio           : 2.40:1
Frame rate mode                : Constant
Frame rate                     : 15.000 FPS
Color space                    : YUV
Chroma subsampling             : 4:2:0
Bit depth                      : 8 bits
Scan type                      : Progressive
Bits/(Pixel*Frame)             : 0.099
Stream size                    : 1 015 MiB (83%)
Language                       : English
Color range                    : Limited

Audio
Format                         : AAC
Format/Info                    : Advanced Audio Codec
Format profile                 : LC
Codec ID                       : 40
Duration                       : 2 h 22 min
Bit rate mode                  : Constant
Bit rate                       : 197 kb/s
Channel(s)                     : 6 channels
Channel positions              : Front: L C R, Side: L R, LFE
Sampling rate                  : 44.1 kHz
Frame rate                     : 43.066 FPS (1024 SPF)
Compression mode               : Lossy
Stream size                    : 200 MiB (16%)
Title                          : Stereo
[/code]



















Category:Movies > 1080P Bluray
Lang:Tamil
Total Size:1.20 GB
Info Hash:7d8ae69df3887f86185a3a520af467efa52dfaab
Added By:newlifemasti0
Date Added:03-02-2019 22:34:42
Views:272
Hits:29

Download Torrent

Ratings:Not Yet Rated (Log in to rate it)


Tracker:
udp://tracker.opentrackr.org:1337/announce


File List: 


Comments

No comments still posted

Powered by 10 Hamsters v2-svn -|- Page Generated In 2.372991 secs.
-|- RSS FEED
Theme By: Nikkbu