[Login] or [Signup]
Login
Username:
Password:
[Signup]
[Recover Account]


Poll


You must be logged in to view polls



Torrent Details For "Badhaai Ho 2018 Hindi 1080p BluRay DD 5.1 x264 ESub [MW]"

Badhaai Ho 2018 Hindi 1080p BluRay DD 5.1 x264 ESub [MW]

Download this torrent | Magnet Download
Health:
Seeds: 74
Leechers: 22
Completed: 729 
Last Checked: 18-02-2019 09:23:01
External Torrent
Update Stats
Download Magnet


Poster
No poster


Watch-Free-HD     Download

Details
Name:Badhaai Ho 2018 Hindi 1080p BluRay DD 5.1 x264 ESub [MW]
Description:

 


General
Format                                   : Matroska
Format version                           : Version 4
File size                                : 2.11 GiB
Duration                                 : 2 h 5 min
Overall bit rate                         : 2 407 kb/s

Video
ID                                       : 1
Format                                   : AVC
Format/Info                              : Advanced Video Codec
Format profile                           : [email protected]
Format settings                          : CABAC / 4 Ref Frames
Format settings, CABAC                   : Yes
Format settings, RefFrames               : 4 frames
Codec ID                                 : V_MPEG4/ISO/AVC
Duration                                 : 2 h 5 min
Bit rate                                 : 2 000 kb/s
Width                                    : 1 920 pixels
Height                                   : 816 pixels
Display aspect ratio                     : 2.35:1
Frame rate mode                          : Constant
Frame rate                               : 24.000 FPS
Color space                              : YUV
Chroma subsampling                       : 4:2:0
Bit depth                                : 8 bits
Scan type                                : Progressive
Bits/(Pixel*Frame)                       : 0.053
Stream size                              : 1.77 GiB (84%)
Writing library                          : x264 core 157 r2935 545de2f

Audio
ID                                       : 2
Format                                   : AC-3
Format/Info                              : Audio Coding 3
Commercial name                          : Dolby Digital
Codec ID                                 : A_AC3
Duration                                 : 2 h 5 min
Bit rate mode                            : Constant
Bit rate                                 : 384 kb/s
Channel(s)                               : 6 channels
Channel layout                           : L R C LFE Ls Rs
Sampling rate                            : 48.0 kHz
Frame rate                               : 31.250 FPS (1536 SPF)
Bit depth                                : 16 bits
Compression mode                         : Lossy
Stream size                              : 345 MiB (16%)
Language                                 : Hindi
Service kind                             : Complete Main
Default                                  : Yes
Forced                                   : No

Text
ID                                       : 3
Format                                   : UTF-8
Codec ID                                 : S_TEXT/UTF8
Codec ID/Info                            : UTF-8 Plain Text
Duration                                 : 1 h 54 min
Bit rate                                 : 58 b/s
Count of elements                        : 1554
Stream size                              : 48.8 KiB (0%)
Default                                  : Yes
Forced                                   : No


Click To View Image

 http://pichub.site/image/kLGit
 http://pichub.site/image/kLNp4
 http://pichub.site/image/kLUbp
 http://pichub.site/image/kLxcy
 http://pichub.site/image/kL0Ub
 http://pichub.site/image/kLL90

Category:Movies > Bollywood
Lang:Hindi
Total Size:2.11 GB
Info Hash:fa045e49e690ed93c1743f25eb95f4d518d092cc
Added By:Freaky
Date Added:11-02-2019 08:35:13
Views:288
Hits:32

Download Torrent

Ratings:Not Yet Rated (Log in to rate it)


Tracker:
udp://tracker.coppersurfer.tk:6969/announce


File List: 


Comments

No comments still posted

Powered by 10 Hamsters v2-svn -|- Page Generated In 0.146201 secs.
-|- RSS FEED
Theme By: Nikkbu